Manto 2018 Full Movie Download In 720p HD WEBRip Quality Encoded In x264 MKV.

Manto 2018 Full Movie Download 720p Full HD BluRay Movies Counter, WorldFree4u

Details Of Full Length Free Videos

Title: Manto 2018 Movie
Genres: Biography | Drama
Country: India
Language: Hindi
Release Date: 21 September 2018
Quality: 720p WEBRip x264
Format: MKV
Size: 728-MB

IMDb

Storyline

Manto 2018 Full Hindi Movie Download The film follows the most tumultuous four years in the life of Manto and that of the two countries he inhabits – India and Pakistan. In Bombay’s seedy-shiny film world, Hd Movie Download and his stories are widely read and accepted. But as sectarian violence engulfs the nation, Manto makes the difficult choice of leaving his beloved Bombay. In Lahore, he finds himself bereft of friends and unable to find takers for his writings. His increasing alcoholism leads him into a downward spiral. Through all of this, he continues to write prolifically, without dilution. This is the tale of two emerging nations, two faltering cities, and one man who tries to make sense of it all.

About

Manto 2018 Full Hd Movie Download is a 2018 Indian biographical drama film about the famous Urdu author Saadat Hasan Manto, written and directed by Nandita Das. The film stars Nawazuddin Siddiqui in the title character of Indo-Pakistani, author and writer Saadat Hasan Hd Bluray. Tahir Raj Bhasin plays the 40’s Bollywood superstar Shyam Chadda. Shyam was 2018 Bollywood Movie Download friend, confidant, and inspiration for a number of stories. Rasika Dugal plays the role of Manto’s wife, Safia. Movies Counter is based on the 1940’s post-Independence period of India.

The poster of the film was unveiled at the 2017 Cannes Film Festival. Das made a short film titled In Defence of Freedom, also starring Nawazuddin in the main role, and was released on YouTube on 23 March 2017. The film premiered at the 2018 Cannes Film Festival and released in Indian theatres on 21 September 2018. It was made as a prelude to the feature film. The film has multiple producers such as HP Studios, Filmstoc, and Viacom 18 Motion Pictures.

Cast

  • Nawazuddin Siddiqui as Saadat Hasan Manto
  • Rasika Dugal as Safia
  • Tahir Raj Bhasin as Shyam
  • Feryna Wazheir as Nargis
  • Javed Akhtar as Abid Ali Abid
  • Chandan Roy Sanyal as Ahmed Nadeem Qasmi
  • Vinod Nagpal as Bishan Singh
  • Rishi Kapoor as Film Producer
  • Inaamulhaq as Hamid
  • Ranvir Shorey as Ishar Singh
  • Rajshri Deshpande as Ismat Chugtai
  • Ila Arun as Jaddanbai
  • Divya Dutta as Kulwant Kaur
  • Paresh Rawal as Pimp
  • Tillotama Shome as Prostitute
  • Shashank Arora as Shaad Amritsari
  • Gurdas Maan as Sirajuddin
  • Danish Husain as Asad Zaidi
  • Bhanu Uday as Ashok Kumar

Casting

In November 2015, it was reported that Nandita Das had approached actor Irrfan Khan to play the leading role in her film Manto 2018 Full Movie Download In Hd. Nandita said that, “Irrfan fits the role to the T as he speaks fluent Urdu, looks a lot like Manto and, above all, is a wonderful actor. He has read a lot of Manto himself and is influenced by him.” In May 2016, during the 69th Cannes Film Festival Nandita announced that Nawazuddin Siddiqui had been finalized for the central role of Manto in her next film. Nandita said that, “I have had Nawazuddin in mind from the very outset, but in India, economics always interferes with art and there was pressure on me to cast a more mainstream star.”

MKV File Details

MKV File Details

Video
ID : 1
Format : AVC
Format/Info : Advanced Video Codec
Format profile : [email protected]
Format settings : CABAC / 5 Ref Frames
Format settings, CABAC : Yes
Format settings, RefFrames : 5 frames
Codec ID : V_MPEG4/ISO/AVC
Duration : 1 h 53 min
Bit rate : 800 kb/s
Width : 1 280 pixels
Height : 720 pixels
Display aspect ratio : 16:9
Frame rate mode : Constant
Frame rate : 24.000 FPS
Color space : YUV  Manto 2018 Full Movie Download 300mb
Chroma subsampling : 4:2:0
Bit depth : 8 bits
Scan type : Progressive
Bits/(Pixel*Frame) : 0.036
Stream size : 652 MiB (83%)
Default : Yes
Forced : No
Color range : Limited
Color primaries : BT.709
Transfer characteristics : BT.709
Matrix coefficients : BT.709

Audio  Manto 2018 Full Movie Download Worldfree4u
ID : 2
Format : AAC
Format/Info : Advanced Audio Codec
Format profile : LC
Codec ID : A_AAC-2
Duration : 1 h 53 min
Bit rate : 160 kb/s
Channel(s) : 2 channels
Channel positions : Front: L R
Sampling rate : 48.0 kHz
Frame rate : 46.875 FPS (1024 SPF)
Compression mode : Lossy
Delay relative to video : -41 ms
Stream size : 130 MiB (17%)
Language : Hindi
Default : Yes
Forced : No

Images, Screenshots Of Full Episodes

Some Images Of Manto 2018 Hindi Movie 720p WEBRip HD x264

Manto 2018 Full Movie Download 720p Full HD BluRay Movies Counter, WorldFree4u

Manto 2018 Full Movie Download 720p Full HD BluRay Movies Counter, WorldFree4u

Manto 2018 Full Movie Download 720p Full HD BluRay Movies Counter, WorldFree4u

Manto 2018 Full Movie Download 720p Full HD BluRay Movies Counter, WorldFree4u

Manto 2018 Full Movie Download 720p Full HD BluRay Movies Counter, WorldFree4u

Watch The Full HD 720p, 1080p Movie Trailers

Watch Manto 2018 Full HD Movie Trailer

Direct Download Links Of Manto 2018 Full Movie In 720p HD Given Below

Free Download Direct Links HD

Direct Links For Premium Users

If you are the member of this site then enter your login details and Enjoy Direct Links

One Comment

  1. Piyush Tiwari

    December 1, 2018 at 10:01 am

    Manto is now available on Netflix! Please upload BR-RIP.

    Reply

Leave a Reply

Your email address will not be published. Required fields are marked *

Check Also

Bucket List (2018) Marathi 720p HDRip x264 AAC – 1.1 GB

Bucket List 2018 Full Marathi Movie Free Download In 720p HDRip QUality Encoded In x264 MK…