Batti Gul Meter Chalu Full Movie Download 720p HD WEB-DL Quality Encoded In x264 MKV.

Batti Gul Meter Chalu Full Movie Download 720p HD 2018 Direct Link

Details Of Full Length Free Videos

Title: Batti Gul Meter Chalu 2018
Genres: Drama
Country: India
Language: Hindi
Release Date: 21 September 2018 (USA)
Quality: 720p WEB-DL x264
Audio: AAC
Format: MKV
Size: 1.2-GB

IMDb

Storyline

Batti Gul Meter Chalu Full Movie Download HD 720p x264 S.K, Nauti, and Tripathi are childhood friends. S.K is a hypocrite, mean lawyer making money from out of court settlements. Nauti is an over the top fashion designer who thinks highly of herself. Things were breezy until Tripathi opens a small town Printing Press. Within months, he is charged with an Inflated electricity bill of 1.5 Lakhs, which escalates to 54 Lakhs in the following months. With no where to go and complain, Tripathi commits suicide. S.K is set aback by the events and has a change of heart. He decides to fight out against SPTL , a Privatised Electricity Company responsible for the Inflated Bills. He has Advocate Gulnaar representing SPTL as his opponent.. Whether or not he is able to sue the company forms the rest of the story.

About Batti Gul Meter Chalu 2018 Film:

Batti Gul Meter Chalu is a 2018 Indian social problem film directed by Shree Narayan Singh and produced by Bhushan Kumar, Nishant Pitti and Krishan Kumar. The film tells the story of inflated electricity bills in rural India and stars Shahid Kapoor, Shraddha Kapoor, Divyendu Sharma, and Yami Gautam.

Principal photography commenced in February 2018 in Tehri, Uttarakhand and was completed in July 2018. The film was released worldwide on 21 September 2018 to a mixed response.

Batti Gul Meter Chalu 720p HD Movie Cast

  • Shahid Kapoor as Sushil Kumar “SK” Pant
  • Divyendu Sharma as Sundar Mohan Tripathi / Ratul Gupta
  • Shraddha Kapoor as Lalita “Nauti” Nautiyal
  • Farida Jalal as Lalita’s grandmother
  • Yami Gautam as Advocate Gulnaar Rizvi
  • Sushmita Mukherjee as Judge
  • Samir Soni as Sanjay Bhaduriya, SPTL owner
  • Rajendra Chawla as Janak Khanduri, complaint officer
  • Sukhvinder Chahal as Pankaj Bahuguna, SPTL official
  • Sudhir Pandey as D.N Pant, SK’s father
  • Supriya Pilgaonkar as Beena Nautiyal, Lalita’s mother
  • Atul Srivastava as Murarilal Tripathi, Sundar’s father
  • Anushka Ranjan as Rita, Sundar’s sister
  • Brijendra Kala as Deendayal Gangotri Travels owner
  • Badrul Islam as Kalyan
  • Sharib Hashmi as Vikas
  • Mukesh S Bhatt as Upreti
  • Anna Ador as Ariana

MKV File Details

MKV File Details

General
Format : Matroska
Format version : Version 4 / Version 2
File size : 1.15 GiB
Duration : 2 h 26 min
Overall bit rate : 1 128 kb/s

Video Batti Gul Meter Chalu 720p Download
ID : 1
Format : AVC
Format/Info : Advanced Video Codec
Format profile : [email protected]
Format settings : CABAC / 4 Ref Frames
Format settings, CABAC : Yes
Format settings, RefFrames : 4 frames
Codec ID : V_MPEG4/ISO/AVC
Duration : 2 h 26 min
Bit rate : 1 000 kb/s
Width : 1 280 pixels
Height : 536 pixels
Display aspect ratio : 2.40:1
Frame rate mode : Constant
Frame rate : 25.000 FPS
Color space : YUV
Chroma subsampling : 4:2:0
Bit depth : 8 bits
Scan type : Progressive
Bits/(Pixel*Frame) : 0.058
Stream size : 1.02 GiB (88%)
Writing library : x264 core 155 r2901 7d0ff22
Default : Yes
Forced : No

Audio
ID : 2 Batti Gul Meter Chalu Download In HD
Format : AAC
Format/Info : Advanced Audio Codec
Format profile : LC
Codec ID : A_AAC-2
Duration : 2 h 26 min
Bit rate : 128 kb/s
Channel(s) : 2 channels
Channel positions : Front: L R
Sampling rate : 48.0 kHz
Frame rate : 46.875 FPS (1024 SPF)
Compression mode : Lossy
Stream size : 133 MiB (11%)
Language : Hindi
Default : Yes
Forced : No

Images, Screenshots Of Full Episodes

Some Images Of Batti Gul Meter Chalu Full Movie HD 720p WEB-DL x264

Batti Gul Meter Chalu Full Movie Download 720p HD 2018 Direct Link

Batti Gul Meter Chalu Full Movie Download 720p HD 2018 Direct Link

Batti Gul Meter Chalu Full Movie Download 720p HD 2018 Direct Link

Batti Gul Meter Chalu Full Movie Download 720p HD 2018 Direct Link

Batti Gul Meter Chalu Full Movie Download 720p HD 2018 Direct Link

Batti Gul Meter Chalu Full Movie Download 720p HD 2018 Direct Link

Watch The Full HD 720p, 1080p Movie Trailers

Watch Batti Gul Meter Chalu 2018 HD Movie Trailer

Direct Download Links Of Batti Gul Meter Chalu Full Movie In 720p HD Given Below

Free Download Direct Links HD

Direct Links For Premium Users

If you are the member of this site then enter your login details and Enjoy Direct Links

Leave a Reply

Your email address will not be published. Required fields are marked *

Check Also

Bucket List (2018) Marathi 720p HDRip x264 AAC – 1.1 GB

Bucket List 2018 Full Marathi Movie Free Download In 720p HDRip QUality Encoded In x264 MK…